皇马球迷俱乐部论坛 - RMFANS.COM

 找回密码
 注册用户
查看: 8709|回复: 43

2006-2007赛季联赛回顾【百度网盘】

[复制链接]
发表于 2015-5-10 14:12:10 | 显示全部楼层 |阅读模式
本帖最后由 加菲猫 于 2015-5-10 17:53 编辑

这东东就是每一场联赛的精华合辑,没台标,西语解说,很激动那种。那个赛季难以复制,我们不但有一群意志力超强的球员,还有一群半夜陪着皇马玩心跳的球迷,还有塔穆多这样的雷锋。
应贴吧一个皇马球迷需求,2015.5.10更新
百度网盘:
游客,如果您要查看本帖隐藏内容请回复




General
Unique ID : 186853204679732743528054671607706162950 (0x8C929E42FE5D968EA84C00FCB1401706)
Complete name : 2006-2007.Las.Mejores Imagenes.De.La.Liga.R7G.mkv
Format : Matroska
Format version : Version 4 / Version 2
File size : 2.71 GiB
Duration : 3h 46mn
Overall bit rate : 1 715 Kbps
Encoded date : UTC 2015-05-09 09:19:39
Writing application : mkvmerge v7.8.0 ('River Man') 64bit built on Mar 27 2015 16:31:37
Writing library : libebml v1.3.1 + libmatroska v1.4.2
DURATION : 00:00:03.777000000
NUMBER_OF_FRAMES : 1
NUMBER_OF_BYTES : 74
_STATISTICS_WRITING_APP : mkvmerge v7.8.0 ('River Man') 64bit built on Mar 27 2015 16:31:37
_STATISTICS_WRITING_DATE_UTC : 2015-05-09 09:19:39
_STATISTICS_TAGS : BPS DURATION NUMBER_OF_FRAMES NUMBER_OF_BYTES
Video #1
ID : 1
Format : MPEG-4 Visual
Format profile : Advanced Simple@L5
Format settings, BVOP : 2
Format settings, QPel : No
Format settings, GMC : No warppoints
Format settings, Matrix : Default (H.263)
Muxing mode : Packed bitstream
Codec ID : V_MS/VFW/FOURCC / XVID
Codec ID/Hint : XviD
Duration : 3h 46mn
Bit rate : 1 553 Kbps
Width : 544 pixels
Height : 416 pixels
Display aspect ratio : 4:3
Frame rate mode : Constant
Frame rate : 25.000 fps
Color space : YUV
Chroma subsampling : 4:2:0
Bit depth : 8 bits
Scan type : Progressive
Compression mode : Lossy
Bits/(Pixel*Frame) : 0.274
Stream size : 2.46 GiB (91%)
Writing library : XviD 1.1.2 (UTC 2006-11-01)
Default : Yes
Forced : No
Audio #2
ID : 2
Format : MPEG Audio
Format version : Version 1
Format profile : Layer 3
Mode : Joint stereo
Mode extension : MS Stereo
Codec ID : A_MPEG/L3
Codec ID/Hint : MP3
Duration : 3h 46mn
Bit rate mode : Constant
Bit rate : 128 Kbps
Channel(s) : 2 channels
Sampling rate : 48.0 KHz
Compression mode : Lossy
Stream size : 207 MiB (7%)
Default : Yes
Forced : No


2006-2007.Las.Mejores Imagenes.De.La.Liga.R7G.PNG
回复

使用道具 举报

发表于 2015-5-10 15:24:45 | 显示全部楼层
终于有人传06-07赛季的回顾性视频了,LZ大赞
回复 支持 反对

使用道具 举报

发表于 2015-5-12 23:32:58 | 显示全部楼层
真是绝世好帖。
回复 支持 反对

使用道具 举报

发表于 2015-5-23 14:31:59 | 显示全部楼层
谢谢分享啊
回复 支持 反对

使用道具 举报

发表于 2015-5-27 01:01:52 | 显示全部楼层
多谢分享,好像下过了
回复 支持 反对

使用道具 举报

发表于 2015-5-27 14:29:37 | 显示全部楼层
绝对经典的一个赛季
回复 支持 反对

使用道具 举报

发表于 2015-5-27 17:15:09 | 显示全部楼层
看看还有源吗
回复 支持 反对

使用道具 举报

发表于 2015-5-28 09:33:23 | 显示全部楼层
~~~~~~~~~~~~~~~~~~~~~~~~~~~
回复 支持 反对

使用道具 举报

发表于 2015-5-28 10:48:37 | 显示全部楼层
我就是从这个赛季开始真正关注吾皇比赛的
回复 支持 反对

使用道具 举报

发表于 2015-5-28 12:58:41 | 显示全部楼层
多谢分享啊,重温多少都不厌的一个赛季~
回复 支持 反对

使用道具 举报

您需要登录后才可以回帖 登录 | 注册用户

本版积分规则



小黑屋|手机版|无图版| 皇马球迷俱乐部  

GMT+8, 2019-8-20 06:32 , Processed in 0.079376 second(s), 21 queries .

Powered by Discuz! X3.3

© 2001-2017 Comsenz Inc.

快速回复 返回顶部 返回列表