皇马球迷俱乐部论坛 - RMFANS.COM

 找回密码
 注册用户
查看: 5771|回复: 31

【zola7raul制作】劳尔2011-2012赛季全部进球.配乐+字幕.720P高清版【迅雷】

  [复制链接]
发表于 2012-10-2 10:09:08 | 显示全部楼层 |阅读模式
本帖最后由 zola7raul 于 2012-10-2 10:15 编辑

声明:
      本视频内容谢绝一切转载,谢谢!
自本贴发布日期始,免费三个月,永不过期!
      Raul Gonzalez Blanco——无论走到哪里,我们一直追随你!一生只为你!


劳尔2011-2012赛季21粒进球全纪录
01.2011年07月31日 德国杯32分之1决赛 FC坦宁根 1:11 沙尔克04
02.2011年07月31日 德国杯32分之1决赛 FC坦宁根 1:11 沙尔克04
03.2011年08月13日 德国足球甲级联赛第2轮 沙尔克04 5:1科隆
04.2011年08月29日 德国足球甲级联赛第4轮 沙尔克04 1:0 门兴格拉德巴赫
05.2011年09月11日 德国足球甲级联赛第5轮 沃尔夫斯堡 2:1 沙尔克04
06.2011年09月24日 德国足球甲级联赛第7轮 沙尔克04 4:2 弗莱堡
07.2011年10月29日 德国足球甲级联赛第11轮 沙尔克04 3:1 霍芬海姆
08.2011年11月19日 德国足球甲级联赛第13轮 沙尔克04 4:0 纽伦堡
09.2011年12月02日 欧洲联赛小组赛J组第5轮 德国沙尔克04 2:1 罗马尼亚布加勒斯特星
10.2011年12月05日 德国足球甲级联赛第15轮 沙尔克04 3:1 奥格斯堡
11.2011年12月18日 德国足球甲级联赛第17轮 沙尔克04 5:0 云达不莱梅
12.2011年12月18日 德国足球甲级联赛第17轮 沙尔克04 5:0 云达不莱梅
13.2011年12月18日 德国足球甲级联赛第17轮 沙尔克04 5:0 云达不莱梅
14.2012年02月19日 德国足球甲级联赛第22轮 沙尔克04 4:0 沃尔夫斯堡
15.2012年03月18日 德国足球甲级联赛第26轮 凯泽斯劳滕 1:4 沙尔克04
16.2012年03月30日 欧洲联赛4分之1决赛第1回合 德国沙尔克04 2:4 西班牙毕尔巴鄂竞技
17.2012年03月30日 欧洲联赛4分之1决赛第1回合 德国沙尔克04 2:4 西班牙毕尔巴鄂竞技
18.2012年04月06日 欧洲联赛4分之1决赛第2回合 西班牙毕尔巴鄂竞技 2:2 德国沙尔克04
19.2012年04月08日 德国足球甲级联赛第29轮 沙尔克04 3:0 汉诺威96
20.2012年04月08日 德国足球甲级联赛第29轮 沙尔克04 3:0 汉诺威96
21.2012年04月28日 德国足球甲级联赛第33轮 沙尔克04 4:0 柏林赫塔



下载地址(视频信息及截图详见沙发)

迅雷下载:
游客,如果您要查看本帖隐藏内容请回复
在线观看地址:
游客,如果您要查看本帖隐藏内容请回复
多语言解说版本下载地址:
http://bbs.rmfans.cn/thread-208369-1-1.html
============================================================

其他相关链接:
I.【小崔倾力制作】劳尔2010-2011赛季全部进球 H264 720P高清【115】
http://bbs.rmfans.cn/thread-164545-1-2.html

II.【新年礼物】劳尔2010-2011赛季全部进球 配乐+字幕 H264 720P高清【迅雷】
http://bbs.rmfans.cn/thread-183980-1-2.html

II.皇马2011-12赛季西班牙国王杯14粒进球全纪录.解说版+配乐版.720P高清【迅雷】
http://bbs.rmfans.cn/thread-184418-1-1.html

III.【zola7raul制作】劳尔2011-2012赛季全部进球.720P高清.原版解说版本【迅雷】
http://bbs.rmfans.cn/thread-208369-1-1.html

IV.【zola7raul制作】劳尔2011-2012赛季全部进球.配乐+字幕.720P高清版【迅雷】
http://bbs.rmfans.cn/thread-208370-1-1.html

=============================================================



评分

参与人数 2金钱 +17 收起 理由
dreamd5 + 7 很给力!
777hz + 10 赞一个!

查看全部评分

回复

使用道具 举报

 楼主| 发表于 2012-10-2 10:09:36 | 显示全部楼层

视频信息:

本帖最后由 zola7raul 于 2012-10-2 10:11 编辑

Raul Gonzalez Blanco 2011-2012 All Goals With Music.mkv
    General
       Unique ID : 226440019498519117014052743258530725528 (0xAA5AC2EC286892E3ABD144E8329D3E98)
       Complete name : Raul Gonzalez Blanco 2011-2012 All Goals With Music.mkv
       Format : Matroska
       Format version : Version 2
       File size : 975 MiB
       Duration : 29mn 5s
       Overall bit rate : 4 685 Kbps
       Movie name : Made by zola7raul for Raul Gonzalez Blanco
       Encoded date : UTC 2012-10-01 15:25:16
       Writing application : mkvmerge v4.3.0 ('Escape from the Island') 编译于 Sep  5 2010 10:30:51
       Writing library : libebml v1.0.0 + libmatroska v1.0.0
    Video #1
       ID : 1
       Format : AVC
       Format/Info : Advanced Video Codec
       Format profile : High@L3.1
       Format settings, CABAC : Yes
       Format settings, ReFrames : 5 frames
       Format settings, GOP : M=4, N=13
       Muxing mode : Header stripping
       Codec ID : V_MPEG4/ISO/AVC
       Duration : 29mn 5s
       Bit rate : 4 464 Kbps
       Width : 1 280 pixels
       Height : 720 pixels
       Display aspect ratio : 16:9
       Frame rate mode : Variable
       Frame rate : 30.000 fps
       Color space : YUV
       Chroma subsampling : 4:2:0
       Bit depth : 8 bits
       Scan type : Progressive
       Bits/(Pixel*Frame) : 0.161
       Stream size : 929 MiB (95%)
       Title : Made by zola7raul for Raul Gonzalez Blanco
       Default : Yes
       Forced : No
    Audio #2
       ID : 2
       Format : AC-3
       Format/Info : Audio Coding 3
       Mode extension : CM (complete main)
       Format settings, Endianness : Big
       Muxing mode : Header stripping
       Codec ID : A_AC3
       Duration : 29mn 5s
       Bit rate mode : Constant
       Bit rate : 128 Kbps
       Channel(s) : 2 channels
       Channel positions : Front: L R
       Sampling rate : 48.0 KHz
       Bit depth : 16 bits
       Compression mode : Lossy
       Stream size : 26.6 MiB (3%)
       Title : Made by zola7raul for Raul Gonzalez Blanco
       Default : Yes
       Forced : No
    Text #3
       ID : 3
       Format : UTF-8
       Codec ID : S_TEXT/UTF8
       Codec ID/Info : UTF-8 Plain Text
       Title : Made by zola7raul for Raul Gonzalez Blanco
       Language : Chinese
       Default : Yes
       Forced : No

Raul Gonzalez Blanco 2011-2012 All Goals With Music.mkv_thumbs_2012.10.02.10_01_.jpg

配乐目录:
01.Gil - It's your love;
02.Weslife - Unbreakable;
03.Chris Medina - What Are Words;
04.Architecture In Helsinki - Escapee;
05.The Naked & Famous - Punching In A Dream;
06.Paul Oakenfold - Beatiful Goal;
07.Secret Garden - The Rap;
08.Era - Enae Volare;
09.Gerry & The Pacemakers - You'll Never Walk Alone.
回复 支持 反对

使用道具 举报

发表于 2012-10-2 10:28:39 | 显示全部楼层
太好啦。。。
回复 支持 反对

使用道具 举报

发表于 2012-10-2 10:38:09 | 显示全部楼层
查看本帖隐藏内容
回复 支持 反对

使用道具 举报

发表于 2012-10-2 10:56:30 | 显示全部楼层
无论走到哪里,我们一直追随你!
回复 支持 反对

使用道具 举报

发表于 2012-10-2 11:22:12 | 显示全部楼层
劳尔2011-2012赛季全部进球.配乐+字幕.720P高清版【迅雷】 [修改
回复 支持 反对

使用道具 举报

发表于 2012-10-2 11:51:20 | 显示全部楼层
如果您要查看本帖隐藏内容请回复
回复 支持 反对

使用道具 举报

发表于 2012-10-2 11:53:40 | 显示全部楼层
RE: 【zola7raul制作】劳尔2011-2012赛季全部进球.配乐+字幕.720P高清版【迅雷】
回复 支持 反对

使用道具 举报

发表于 2012-10-2 12:06:16 | 显示全部楼层
参与/回复主题 关闭
RE: 【zola7raul制作】劳尔2011-20
回复 支持 反对

使用道具 举报

发表于 2012-10-2 13:28:38 | 显示全部楼层
的地地道道地地道道地地道道
回复 支持 反对

使用道具 举报

您需要登录后才可以回帖 登录 | 注册用户

本版积分规则



小黑屋|手机版|无图版| 皇马球迷俱乐部  

GMT+8, 2019-7-22 10:23 , Processed in 0.078518 second(s), 22 queries .

Powered by Discuz! X3.3

© 2001-2017 Comsenz Inc.

快速回复 返回顶部 返回列表