皇马球迷俱乐部论坛 - RMFANS.COM

 找回密码
 注册用户
查看: 5759|回复: 36

【zola7raul制作】劳尔2011-2012赛季全部进球.720P高清.原版解说版本【迅雷】

  [复制链接]
发表于 2012-10-2 10:04:09 | 显示全部楼层 |阅读模式
本帖最后由 zola7raul 于 2012-10-2 10:15 编辑
声明:
      本视频内容谢绝一切转载,谢谢!

劳尔2011-2012赛季进球全纪录
01.2011年07月31日 德国杯32分之1决赛 FC坦宁根 1:11 沙尔克04【sky SPORT HD1德语解说】
02.2011年07月31日 德国杯32分之1决赛 FC坦宁根 1:11 沙尔克04【sky SPORT HD1德语解说】
03.2011年08月13日 德国足球甲级联赛第2轮 沙尔克04 5:1科隆【sky SPORT HD1德语解说】
04.2011年08月29日 德国足球甲级联赛第4轮 沙尔克04 1:0 门兴格拉德巴赫【NTV俄语解说】
05.2011年09月11日 德国足球甲级联赛第5轮 沃尔夫斯堡 2:1 沙尔克04【NTV俄语解说】
06.2011年09月24日 德国足球甲级联赛第7轮 沙尔克04 4:2 弗莱堡【sky SPORT HD2德语解说】
07.2011年10月29日 德国足球甲级联赛第11轮 沙尔克04 3:1 霍芬海姆【NTV俄语解说】
08.2011年11月19日 德国足球甲级联赛第13轮 沙尔克04 4:0 纽伦堡【sky SPORT HD2德语解说】
09.2011年12月02日 欧洲联赛小组赛J组第5轮 德国沙尔克04 2:1 罗马尼亚布加勒斯特星【sky SPORT HD1德语解说】
10.2011年12月05日 德国足球甲级联赛第15轮 沙尔克04 3:1 奥格斯堡【sky SPORT HD2德语解说】
11.2011年12月18日 德国足球甲级联赛第17轮 沙尔克04 5:0 云达不莱梅【sky SPORT HD1德语解说】
12.2011年12月18日 德国足球甲级联赛第17轮 沙尔克04 5:0 云达不莱梅【sky SPORT HD1德语解说】
13.2011年12月18日 德国足球甲级联赛第17轮 沙尔克04 5:0 云达不莱梅【sky SPORT HD1德语解说】
14.2012年02月19日 德国足球甲级联赛第22轮 沙尔克04 4:0 沃尔夫斯堡【sky SPORT HD1德语解说】
15.2012年03月18日 德国足球甲级联赛第26轮 凯泽斯劳滕 1:4 沙尔克04【sky SPORT HD1德语解说】
16.2012年03月30日 欧洲联赛4分之1决赛第1回合 德国沙尔克04 2:4 西班牙毕尔巴鄂竞技【Channel 5 HD西班牙语解说】
17.2012年03月30日 欧洲联赛4分之1决赛第1回合 德国沙尔克04 2:4 西班牙毕尔巴鄂竞技【Channel 5 HD西班牙语解说】
18.2012年04月06日 欧洲联赛4分之1决赛第2回合 西班牙毕尔巴鄂竞技 2:2 德国沙尔克04【NTV俄语解说】
19.2012年04月08日 德国足球甲级联赛第29轮 沙尔克04 3:0 汉诺威96【sky SPORT HD1德语解说】
20.2012年04月08日 德国足球甲级联赛第29轮 沙尔克04 3:0 汉诺威96【sky SPORT HD1德语解说】
21.2012年04月28日 德国足球甲级联赛第33轮 沙尔克04 4:0 柏林赫塔【sky SPORT HD1德语解说】



下载地址

迅雷快传:
游客,如果您要查看本帖隐藏内容请回复
在线观看地址:
游客,如果您要查看本帖隐藏内容请回复


============================================================

配乐字幕版:
http://bbs.rmfans.cn/thread-208370-1-1.html

============================================================

其他相关链接:
I.【小崔倾力制作】劳尔2010-2011赛季全部进球 H264 720P高清【115】
http://bbs.rmfans.cn/thread-164545-1-2.html

II.【新年礼物】劳尔2010-2011赛季全部进球 配乐+字幕 H264 720P高清【迅雷】
http://bbs.rmfans.cn/thread-183980-1-2.html

II.皇马2011-12赛季西班牙国王杯14粒进球全纪录.解说版+配乐版.720P高清【迅雷】
http://bbs.rmfans.cn/thread-184418-1-1.html

III.【zola7raul制作】劳尔2011-2012赛季全部进球.720P高清.原版解说版本【迅雷】
http://bbs.rmfans.cn/thread-208369-1-1.html

IV.【zola7raul制作】劳尔2011-2012赛季全部进球.配乐+字幕.720P高清版【迅雷】
http://bbs.rmfans.cn/thread-208370-1-1.html






评分

参与人数 2金钱 +17 收起 理由
dreamd5 + 7 很给力!
777hz + 10 很给力!

查看全部评分

回复

使用道具 举报

 楼主| 发表于 2012-10-2 10:04:24 | 显示全部楼层

视频信息:

本帖最后由 zola7raul 于 2012-10-2 10:06 编辑

Raul Gonzalez Blanco 2011-2012 All Goals.mkv
   General
      Unique ID : 239756341951289760332034728860855031849 (0xB45F644F1B5507CC9B013324E067D829)
      Complete name : Raul Gonzalez Blanco 2011-2012 All Goals.mkv
      Format : Matroska
      Format version : Version 2
      File size : 1 004 MiB
      Duration : 29mn 5s
      Overall bit rate : 4 825 Kbps
      Movie name : Made by zola7raul for Raul Gonzalez Blanco
      Encoded date : UTC 2012-10-01 14:34:40
      Writing application : mkvmerge v4.3.0 ('Escape from the Island') 编译于 Sep  5 2010 10:30:51
      Writing library : libebml v1.0.0 + libmatroska v1.0.0
   Video #1
      ID : 1
      Format : AVC
      Format/Info : Advanced Video Codec
      Format profile : High@L3.1
      Format settings, CABAC : Yes
      Format settings, ReFrames : 5 frames
      Format settings, GOP : M=4, N=13
      Muxing mode : Header stripping
      Codec ID : V_MPEG4/ISO/AVC
      Duration : 29mn 5s
      Bit rate : 4 345 Kbps
      Width : 1 280 pixels
      Height : 720 pixels
      Display aspect ratio : 16:9
      Frame rate mode : Variable
      Frame rate : 30.000 fps
      Color space : YUV
      Chroma subsampling : 4:2:0
      Bit depth : 8 bits
      Scan type : Progressive
      Bits/(Pixel*Frame) : 0.157
      Stream size : 904 MiB (90%)
      Title : Made by zola7raul for Raul Gonzalez Blanco
      Default : Yes
      Forced : No
   Audio #2
      ID : 2
      Format : AC-3
      Format/Info : Audio Coding 3
      Mode extension : CM (complete main)
      Format settings, Endianness : Big
      Muxing mode : Header stripping
      Codec ID : A_AC3
      Duration : 29mn 5s
      Bit rate mode : Constant
      Bit rate : 384 Kbps
      Channel(s) : 2 channels
      Channel positions : Front: L R
      Sampling rate : 48.0 KHz
      Bit depth : 16 bits
       Compression mode : Lossy
      Delay relative to video : 4ms
      Stream size : 79.9 MiB (8%)
      Title : Made by zola7raul for Raul Gonzalez Blanco
      Default : Yes
      Forced : No
   Text #3
      ID : 3
      Format : UTF-8
      Codec ID : S_TEXT/UTF8
      Codec ID/Info : UTF-8 Plain Text
      Title : Made by zola7raul for Raul Gonzalez Blanco
      Language : Chinese
      Default : Yes
      Forced : No

Raul Gonzalez Blanco 2011-2012 All Goals.mkv_thumbs_2012.10.02.10_00_48_调整大小.jpg
回复 支持 反对

使用道具 举报

发表于 2012-10-2 10:10:31 | 显示全部楼层
0000000000000
回复 支持 反对

使用道具 举报

发表于 2012-10-2 10:28:50 | 显示全部楼层
谢谢分享。。
回复 支持 反对

使用道具 举报

发表于 2012-10-2 10:37:20 | 显示全部楼层
查看本帖隐藏内容
回复 支持 反对

使用道具 举报

发表于 2012-10-2 11:23:08 | 显示全部楼层
...............
回复 支持 反对

使用道具 举报

发表于 2012-10-2 11:51:32 | 显示全部楼层
如果您要查看本帖隐藏内容请回复
回复 支持 反对

使用道具 举报

发表于 2012-10-2 11:52:32 | 显示全部楼层

RE: 【

zola7raul制作】劳尔2011-2012赛季全部进球.720P高清.原版解说版本【迅雷】
回复 支持 反对

使用道具 举报

发表于 2012-10-2 12:06:30 | 显示全部楼层
参与/回复主题 关闭
RE: 【zola7raul制作】劳尔2011-201
回复 支持 反对

使用道具 举报

发表于 2012-10-2 13:08:22 | 显示全部楼层
谢谢分享,我全部下载
回复 支持 反对

使用道具 举报

您需要登录后才可以回帖 登录 | 注册用户

本版积分规则



小黑屋|手机版|无图版| 皇马球迷俱乐部  

GMT+8, 2018-12-11 00:06 , Processed in 0.061216 second(s), 20 queries .

Powered by Discuz! X3.3

© 2001-2017 Comsenz Inc.

快速回复 返回顶部 返回列表