皇马球迷俱乐部论坛 - RMFANS.COM

 找回密码
 注册用户
查看: 7470|回复: 209

皇马2011-12赛季西班牙国王杯14粒进球全纪录.解说版+配乐版.720P高清【迅雷+115】

  [复制链接]
发表于 2012-1-27 13:37:03 | 显示全部楼层 |阅读模式
本帖最后由 zola7raul 于 2012-1-28 09:54 编辑

声明:
      本视频内容谢绝一切转载,谢谢!
      在经历了两场国家德比之后,皇家马德里悲壮的被巴塞罗那挡在了国王杯四强之外,但是球队体现出来的气质是无人能敌的,粒粒进球也是十分精彩。我制作了激情解说字幕版和配乐字幕版两个版本,字幕和配乐如果大家不喜欢,可以自行去掉。

I.皇家马德里2011-2012赛季西班牙国王杯14粒进球全纪录(激情解说字幕版)
01.2011年12月14日 西班牙国王杯16分之1决赛第1回合 邦费雷迪纳0:2皇家马德里
第28分钟 卡列洪【sky CALCIO HD意大利语解说】
02.2011年12月14日 西班牙国王杯16分之1决赛第1回合 邦费雷迪纳0:2皇家马德里
第73分钟 罗纳尔多【sky CALCIO HD意大利语解说】
03.2011年12月21日 西班牙国王杯16分之1决赛第2回合 皇家马德里5:1邦费雷迪纳
第24分钟 卡列洪【sky CALCIO HD意大利语解说】
04.2011年12月21日 西班牙国王杯16分之1决赛第2回合 皇家马德里5:1邦费雷迪纳
第43分钟 沙辛【sky CALCIO HD意大利语解说】
05.2011年12月21日 西班牙国王杯16分之1决赛第2回合 皇家马德里5:1邦费雷迪纳
第48分钟 瓦拉内【sky CALCIO HD意大利语解说】
06.2011年12月21日 西班牙国王杯16分之1决赛第2回合 皇家马德里5:1邦费雷迪纳
第78分钟 何塞卢【sky CALCIO HD意大利语解说】
07.2011年12月21日 西班牙国王杯16分之1决赛第2回合 皇家马德里5:1邦费雷迪纳
第87分钟 卡列洪【sky CALCIO HD意大利语解说】
08.2012年1月4日 西班牙国王杯8分之1决赛第1回合 皇家马德里3:2马拉加
第67分钟 赫迪拉【sky SPORTS HD2英语解说】
09.2012年1月4日 西班牙国王杯8分之1决赛第1回合 皇家马德里3:2马拉加
第69分钟 伊瓜因【sky SPORTS HD2英语解说】
10.2012年1月4日 西班牙国王杯8分之1决赛第1回合 皇家马德里3:2马拉加
第77分钟 本泽马【sky SPORTS HD2英语解说】
11.2012年1月11日 西班牙国王杯8分之1决赛第2回合 马拉加0:1皇家马德里
第71分钟 本泽马【sky CALCIO HD意大利语解说】
12.2012年1月19日 西班牙国王杯4分之1决赛第1回合 皇家马德里1:2巴塞罗那
第10分钟 罗纳尔多【sky SPORTS HD2英语解说】
13.2012年1月26日 西班牙国王杯4分之1决赛第2回合 巴塞罗那2:2皇家马德里
第67分钟 罗纳尔多【CNOPT HD俄语解说】
14.2012年1月26日 西班牙国王杯4分之1决赛第2回合 巴塞罗那2:2皇家马德里
第71分钟 本泽马【CNOPT HD俄语解说】

下载地址(视频信息及截图详见沙发)

迅雷下载:
游客,如果您要查看本帖隐藏内容请回复


115下载:
游客,如果您要查看本帖隐藏内容请回复


在线观看地址:
游客,如果您要查看本帖隐藏内容请回复


============================================================
II.皇家马德里2011-2012赛季西班牙国王杯14粒进球全纪录(配乐字幕版)

配乐曲目:
01.Keane - Nothing In My Way
02.Muse - Supermassive Black Hole
03.Bond - Bond on Bond
04.Persephone's Bees-Muzika Dlya Fil'ma

下载地址(视频信息及截图详见沙发)

迅雷下载:
游客,如果您要查看本帖隐藏内容请回复


115下载:
游客,如果您要查看本帖隐藏内容请回复


在线观看地址:
游客,如果您要查看本帖隐藏内容请回复

============================================================

其他相关链接:
I.【小崔倾力制作】劳尔2010-2011赛季全部进球 H264 720P高清【115】
http://bbs.rmfans.cn/thread-164545-1-2.html
II.【新年礼物】劳尔2010-2011赛季全部进球 配乐+字幕 H264 720P高清【迅雷】
http://bbs.rmfans.cn/thread-183980-1-2.html


评分

参与人数 1金钱 +100 球迷指数 +20 魅力 +20 收起 理由
龅牙 + 100 + 20 + 20 给力

查看全部评分

回复

使用道具 举报

 楼主| 发表于 2012-1-27 13:37:17 | 显示全部楼层
本帖最后由 zola7raul 于 2012-1-28 00:27 编辑

I.皇家马德里2011-2012赛季西班牙国王杯14粒进球全纪录(激情解说字幕版)

视频截图:

皇家马德里2011-2012赛季西班牙国王杯14粒进球全纪录(激情解说字幕版).mkv_thumbs_2.jpg

视频信息:
   General
      Unique ID : 228038476452838443113961036440474869293 (0xAB8E9CEF5B5E14B792136EF3CAB9DE2D)
      Complete name : 皇家马德里2011-2012赛季西班牙国王杯14粒进球全纪录(激情解说字幕版).mkv
      Format : Matroska
      File size : 511 MiB
      Duration : 15mn 53s
      Overall bit rate : 4 497 Kbps
      Encoded date : UTC 2012-01-27 04:37:48
      Writing application : mkvmerge v4.3.0 ('Escape from the Island') 编译于 Sep  5 2010 10:30:51
      Writing library : libebml v1.0.0 + libmatroska v1.0.0
   Video #1
      ID : 1
      Format : AVC
      Format/Info : Advanced Video Codec
      Format profile : Baseline@L3.1
      Format settings, CABAC : No
      Format settings, ReFrames : 1 frame
      Format settings, GOP : M=1, N=12
      Muxing mode : Header stripping
      Codec ID : V_MPEG4/ISO/AVC
      Duration : 15mn 53s
      Width : 1 280 pixels
      Height : 720 pixels
      Display aspect ratio : 16:9
      Frame rate : 25.000 fps
      Color space : YUV
      Chroma subsampling : 4:2:0
      Bit depth : 8 bits
      Scan type : Progressive
      Title : 【zola7raul出品】皇家马德里2011-2012赛季西班牙国王杯14粒进球全纪录(激情解说版)
   Audio #2
      ID : 2
      Format : AC-3
      Format/Info : Audio Coding 3
      Muxing mode : Header stripping
      Codec ID : A_AC3
      Duration : 15mn 53s
      Channel(s) : 2 channels
      Sampling rate : 44.1 KHz
      Compression mode : Lossy
      Delay relative to video : 30ms
      Title : 【zola7raul出品】皇家马德里2011-2012赛季西班牙国王杯14粒进球全纪录(激情解说版)
   Text #3
      ID : 3
      Format : UTF-8
      Codec ID : S_TEXT/UTF8
      Codec ID/Info : UTF-8 Plain Text
      Title : 【zola7raul出品】皇家马德里2011-2012赛季西班牙国王杯14粒进球全纪录(激情解说版)


II.皇家马德里2011-2012赛季西班牙国王杯14粒进球全纪录(配乐字幕版)

视频截图:
皇家马德里2011-2012赛季西班牙国王杯14粒进球全纪录(配乐字幕版).mkv_thumbs_2012..jpg

视频信息:
   General
      Unique ID : 190671857286141778306229332607896624051 (0x8F72105F05CE3AAC9EE7841279DF9BB3)
      Complete name : 皇家马德里2011-2012赛季西班牙国王杯14粒进球全纪录(配乐字幕版).mkv
      Format : Matroska
      File size : 504 MiB
      Duration : 15mn 53s
      Overall bit rate : 4 433 Kbps
      Encoded date : UTC 2012-01-27 16:14:32
      Writing application : mkvmerge v4.3.0 ('Escape from the Island') 编译于 Sep  5 2010 10:30:51
      Writing library : libebml v1.0.0 + libmatroska v1.0.0
   Video #1
      ID : 1
      Format : AVC
      Format/Info : Advanced Video Codec
      Format profile : Baseline@L3.1
      Format settings, CABAC : No
      Format settings, ReFrames : 1 frame
      Format settings, GOP : M=1, N=12
      Muxing mode : Header stripping
      Codec ID : V_MPEG4/ISO/AVC
      Duration : 15mn 53s
      Bit rate : 4 153 Kbps
      Width : 1 280 pixels
      Height : 720 pixels
      Display aspect ratio : 16:9
      Frame rate : 25.000 fps
      Color space : YUV
      Chroma subsampling : 4:2:0
      Bit depth : 8 bits
      Scan type : Progressive
      Bits/(Pixel*Frame) : 0.180
      Stream size : 472 MiB (94%)
      Title : 【zola7raul出品】皇家马德里2011-2012赛季西班牙国王杯14粒进球全纪录(配乐字幕版)
   Audio #2
      ID : 2
      Format : MPEG Audio
      Format version : Version 1
      Format profile : Layer 3
      Mode : Joint stereo
      Mode extension : MS Stereo
      Muxing mode : Header stripping
      Codec ID : A_MPEG/L3
      Codec ID/Hint : MP3
      Duration : 15mn 53s
      Bit rate mode : Constant
      Bit rate : 192 Kbps
      Channel(s) : 2 channels
      Sampling rate : 44.1 KHz
      Compression mode : Lossy
      Stream size : 21.8 MiB (4%)
      Title : 【zola7raul出品】皇家马德里2011-2012赛季西班牙国王杯14粒进球全纪录(配乐字幕版)
   Text #3
      ID : 3
      Format : UTF-8
      Codec ID : S_TEXT/UTF8
      Codec ID/Info : UTF-8 Plain Text
      Title : 【zola7raul出品】皇家马德里2011-2012赛季西班牙国王杯14粒进球全纪录(配乐字幕版)
回复 支持 反对

使用道具 举报

发表于 2012-1-27 13:51:28 | 显示全部楼层
来顶崔哥!!!
回复 支持 反对

使用道具 举报

发表于 2012-1-27 13:52:28 | 显示全部楼层
谢谢,权利支持皇马
回复 支持 反对

使用道具 举报

发表于 2012-1-27 13:52:53 | 显示全部楼层
碉堡了,收藏了
回复 支持 反对

使用道具 举报

发表于 2012-1-27 13:53:45 | 显示全部楼层
回复 支持 反对

使用道具 举报

发表于 2012-1-27 13:55:08 | 显示全部楼层
顶一个,谢谢楼主!
回复 支持 反对

使用道具 举报

发表于 2012-1-27 13:55:37 | 显示全部楼层
real madrid ~~~~~~~~~~~~
回复 支持 反对

使用道具 举报

发表于 2012-1-27 13:56:22 | 显示全部楼层
要看要看!
回复 支持 反对

使用道具 举报

发表于 2012-1-27 13:57:39 | 显示全部楼层
赞赞赞赞赞赞赞
回复 支持 反对

使用道具 举报

您需要登录后才可以回帖 登录 | 注册用户

本版积分规则



小黑屋|手机版|无图版| 皇马球迷俱乐部  

GMT+8, 2019-7-22 09:25 , Processed in 0.322929 second(s), 22 queries .

Powered by Discuz! X3.3

© 2001-2017 Comsenz Inc.

快速回复 返回顶部 返回列表