皇马球迷俱乐部论坛 - RMFANS.COM

 找回密码
 注册用户
查看: 6338|回复: 182

【新年礼物】劳尔2010-2011赛季全部进球.配乐+字幕.1280x720.H264高清版本【迅雷】

    [复制链接]
发表于 2012-1-21 21:48:05 | 显示全部楼层 |阅读模式
购买主题 已有 9 人购买  本主题需向作者支付 50 HMB金钱 才能浏览
回复

使用道具 举报

 楼主| 发表于 2012-1-21 21:48:28 | 显示全部楼层
本帖最后由 zola7raul 于 2012-1-21 21:50 编辑

视频详细信息:
G:\Raul Gonzalez Blanco 2010-2011 All Goals.mkv
   General
      Unique ID : 203782005148358539981422729225199008726 (0x994EFC90C90F74D5A73B6B5E4B3DBBD6)
      Complete name : G:\Raul Gonzalez Blanco 2010-2011 All Goals.mkv
      Format : Matroska
      File size : 532 MiB
      Duration : 24mn 35s
      Overall bit rate : 3 024 Kbps
      Encoded date : UTC 2012-01-20 17:36:21
      Writing application : mkvmerge v4.3.0 ('Escape from the Island') 编译于 Sep  5 2010 10:30:51
      Writing library : libebml v1.0.0 + libmatroska v1.0.0
   Video #1
      ID : 1
      Format : AVC
      Format/Info : Advanced Video Codec
      Format profile : Baseline@L3.1
      Format settings, CABAC : No
      Format settings, ReFrames : 1 frame
      Format settings, GOP : M=1, N=12
      Muxing mode : Header stripping
      Codec ID : V_MPEG4/ISO/AVC
      Duration : 24mn 35s
      Bit rate : 2 835 Kbps
      Width : 1 280 pixels
      Height : 720 pixels
      Display aspect ratio : 16:9
      Frame rate : 25.000 fps
      Color space : YUV
      Chroma subsampling : 4:2:0
      Bit depth : 8 bits
      Scan type : Progressive
      Bits/(Pixel*Frame) : 0.123
      Stream size : 499 MiB (94%)
      Title : made by zola7raul for Raul Gonzalez Blanco
   Audio #2
      ID : 2
      Format : MPEG Audio
      Format version : Version 1
      Format profile : Layer 3
      Mode : Joint stereo
      Muxing mode : Header stripping
      Codec ID : A_MPEG/L3
      Codec ID/Hint : MP3
      Duration : 24mn 35s
      Bit rate mode : Constant
      Bit rate : 128 Kbps
      Channel(s) : 2 channels
      Sampling rate : 44.1 KHz
      Compression mode : Lossy
      Stream size : 22.5 MiB (4%)
      Title : made by zola7raul for Raul Gonzalez Blanco
      Writing library : LAME3.98.2
   Text #3
      ID : 3
      Format : UTF-8
      Codec ID : S_TEXT/UTF8
      Codec ID/Info : UTF-8 Plain Text
      Title : made by zola7raul for Raul Gonzalez Blanco
      Language : Chinese

视频截图:

Raul Gonzalez Blanco 2010-2011 All Goals.mkv_thumbs_2012.01.21.21_49_58.jpg

背景音乐目录:
1.JulyJuly / 줄라이 - 《忧伤还是快乐》;
2.Kelly Clarkson - Because Of You ;
3.Coldplay - Yellow ;
4.Bond - Time ;
5.Westlife - Beautiful Tonight ;
6.Chayanne - Yo Te Amo 。
回复 支持 反对

使用道具 举报

发表于 2012-1-21 22:00:03 | 显示全部楼层
如果您要查看本帖隐藏内容请回复
回复 支持 反对

使用道具 举报

发表于 2012-1-21 22:10:24 | 显示全部楼层
真的是新年好礼物,过会了沙尔克的比赛马上就要开始了,还是先看比赛了!LZ辛苦了!
回复 支持 反对

使用道具 举报

发表于 2012-1-21 22:20:43 | 显示全部楼层
这个好给力!谢谢楼主了!
回复 支持 反对

使用道具 举报

发表于 2012-1-21 22:21:03 | 显示全部楼层
日 欧洲冠军联赛1/8决赛首回合 西班牙瓦伦西亚 1:1 德国沙尔克04 第63分钟
第16粒 2011年2月26日 德国足球甲级联赛第24轮 沙尔克04 1:1 纽伦堡 第51分钟
第17粒 2011年3月3日 德国杯半决赛 拜仁慕尼黑 0:1 沙尔克04 第14分钟
第18粒 2011年4月2日 德国足球甲级联赛第28轮 圣保利 0:2 沙尔克04 第26分钟
第19粒 2011年4月6日 欧洲冠军联赛1/4决赛首回合
回复 支持 反对

使用道具 举报

发表于 2012-1-21 22:21:22 | 显示全部楼层
新年好福利……~~
回复 支持 反对

使用道具 举报

发表于 2012-1-21 22:21:43 | 显示全部楼层
给力呀!很好的新年礼物。
回复 支持 反对

使用道具 举报

发表于 2012-1-21 22:22:20 | 显示全部楼层
RaulRaulRaulRaulRaulRaulRaulRaulRaulRaulRaulRaulRaulRaul
回复 支持 反对

使用道具 举报

发表于 2012-1-21 22:23:22 | 显示全部楼层
来下载了咯。。。下完去看球。。。。。。。
回复 支持 反对

使用道具 举报

您需要登录后才可以回帖 登录 | 注册用户

本版积分规则



小黑屋|手机版|无图版| 皇马球迷俱乐部  

GMT+8, 2019-7-22 09:35 , Processed in 0.154380 second(s), 24 queries .

Powered by Discuz! X3.3

© 2001-2017 Comsenz Inc.

快速回复 返回顶部 返回列表